疯狂原始人2017国语音轨

更新日期: 2022年08月16日 下载次数: 667
电影名称:疯狂原始人(The Croods)

电影年代:2013

电影长度:98分钟

拍摄国家:美国

音轨语言:汉语普通话

音轨格式:mka

音道数量:5.1

文件大小:328MB

音轨简介

  Format : Matroska Format version : Version 4 / Version 2 File size : 328 MiB Duration : 1 h 38 min Overall bit rate : 464 kb/s Encoded date : UTC 2021-05-18 07:08:10 Writing application : mkvmerge v56.1.0 (’My Friend’) 64-bit Writing library : libebml v1.4.2 + libmatroska v1.6.4 Audio #1 ID : 1 Format : AC-3 Format/Info : Audio Coding 3 Codec ID : A_AC3 Duration : 1 h 38 min Bit rate mode : Constant Bit rate : 448 kb/s Channel(s) : 6 channels Channel positions : Front: L C R, Side: L R, LFE Sampling rate : 48.0 kHz Frame rate : 31.250 FPS (1536 SPF) Bit depth : 16 bits Compression mode : Lossy Stream size : 316 MiB (96%) Language : Chinese Service kind : Complete Main Default : No Forced : No Text #2 ID : 2 Format : PGS Muxing mode : zlib Codec ID : S_HDMV/PGS Codec ID/Info : Picture based subtitle format used on BDs/HD-DVDs Duration : 1 h 29 min Bit rate : 26.1 kb/s Count of elements : 1485 Stream size : 16.8 MiB (5%) Language : Chinese Default : Yes Forced : No

疯狂原始人2017国语音轨文件百度网盘下载

  https://pan.baidu.com/s/1Pa3Xbreeg0NlOmpGp5x0Ag 百度网盘提取码:zyba

音轨文件说明

帮助中心