生化危机6:终章2017国语音轨

更新日期: 2022年07月13日 下载次数: 1378
电影名称:生化危机6:终章(Resident Evil: The Final Chapter)

电影年代:2017

电影长度:106分钟

拍摄国家:美国

音轨语言:汉语普通话

音轨格式:mka

音道数量:5.1

文件大小:642MB

音轨简介

  Format : Matroska Format version : Version 4 / Version 2 File size : 642 MiB Duration : 1 h 46 min Overall bit rate : 842 kb/s Track name : FFans@leon Encoded date : UTC 2022-07-13 08:18:27 Writing application : mkvmerge v65.0.0 (’Too Much’) 64-bit Writing library : libebml v1.4.2 + libmatroska v1.6.4 Cover : Yes Attachments : Cover.jpg / 方正大黑_GBK.ttf / 方正隶变_GBK.TTF / 方正硬笔行书简体.ttf / 方正硬笔楷书简体.ttf / 方正中倩简体.ttf / 文泉驿微米黑.ttc / 张海山锐谐体.ttf Audio #1 ID : 1 Format : E-AC-3 Format/Info : Enhanced Audio Coding 3 Codec ID : A_EAC3 Duration : 1 h 46 min Bit rate mode : Constant Bit rate : 768 kb/s Channel(s) : 6 channels Channel positions : Front: L C R, Side: L R, LFE Sampling rate : 48.0 kHz Frame rate : 187.500 FPS (256 SPF) Compression mode : Lossy Stream size : 585 MiB (91%) Title : https://4k-m.com Language : Chinese Service kind : Complete Main Default : No Forced : No Text #2 ID : 2 Format : UTF-8 Codec ID : S_TEXT/UTF8 Codec ID/Info : UTF-8 Plain Text Duration : 1 h 37 min Bit rate : 27 b/s Count of elements : 760 Stream size : 19.6 KiB (0%) Default : Yes Forced : No

生化危机6:终章2017国语音轨文件百度网盘下载

  https://pan.baidu.com/s/1d5apS_9_o3YhYGL69n1hWw 百度网盘提取码:zyba

音轨文件说明

帮助中心