生化危机5:惩罚2013国语音轨

更新日期: 2022年07月13日 下载次数: 1121
电影名称:生化危机5:惩罚(Resident Evil: Retribution)

电影年代:2013

电影长度:96分钟

拍摄国家:德国加拿大美国法国

音轨语言:汉语普通话

音轨格式:mka

音道数量:5.1

文件大小:452MB

音轨简介

  Format : Matroska Format version : Version 4 / Version 2 File size : 452 MiB Duration : 1 h 35 min Overall bit rate : 661 kb/s Track name : FFans@leon Encoded date : UTC 2022-07-13 08:12:02 Writing application : mkvmerge v65.0.0 (’Too Much’) 64-bit Writing library : libebml v1.4.2 + libmatroska v1.6.4 Cover : Yes Attachments : Cover.jpg / CronosPro-Subh.otf / STKAITI.TTF Audio #1 ID : 1 Format : E-AC-3 Format/Info : Enhanced Audio Coding 3 Codec ID : A_EAC3 Duration : 1 h 35 min Bit rate mode : Constant Bit rate : 640 kb/s Channel(s) : 6 channels Channel positions : Front: L C R, Side: L R, LFE Sampling rate : 48.0 kHz Frame rate : 187.500 FPS (256 SPF) Compression mode : Lossy Stream size : 438 MiB (97%) Title : https://4k-m.com Language : Chinese Service kind : Complete Main Default : No Forced : No Text #2 ID : 2 Format : UTF-8 Codec ID : S_TEXT/UTF8 Codec ID/Info : UTF-8 Plain Text Duration : 1 h 24 min Bit rate : 20 b/s Count of elements : 334 Stream size : 12.8 KiB (0%) Default : Yes Forced : No

生化危机5:惩罚2013国语音轨文件百度网盘下载

  https://pan.baidu.com/s/1JC039CuaurYdvhLtcq-WuQ 百度网盘提取码:zyba

音轨文件说明

帮助中心