生化危机4:战神再生2010国语音轨

更新日期: 2022年07月01日 下载次数: 1284
电影名称:生化危机4:战神再生(Resident Evil: Afterlife)

电影年代:2010

电影长度:97分钟

拍摄国家:德国法国美国加拿大

音轨语言:汉语普通话

音轨格式:mka

音道数量:5.1

文件大小:532MB

音轨简介

 D:\BaiduYunDownload\生化危机4:战神再生2010国语音轨.mka General Unique ID : 269129164617918995196586907258055467087 (0xCA786446BFF6DB54BEF4C37C96EEA04F) Complete name : D:\BaiduYunDownload\生化危机4:战神再生2010国语音轨.mka Format : Matroska Format version : Version 4 / Version 2 File size : 546 MiB Duration : 1 h 36 min Overall bit rate : 787 kb/s Track name : FFans@leon Encoded date : UTC 2022-07-01 06:43:56 Writing application : mkvmerge v65.0.0 (’Too Much’) 64-bit Writing library : libebml v1.4.2 + libmatroska v1.6.4 Cover : Yes Attachments : CronosPro-Subh.otf / STKAITI.TTF / Cover.jpg Audio #1 ID : 1 Format : E-AC-3 Format/Info : Enhanced Audio Coding 3 Codec ID : A_EAC3 Duration : 1 h 36 min Bit rate mode : Constant Bit rate : 768 kb/s Channel(s) : 6 channels Channel positions : Front: L C R, Side: L R, LFE Sampling rate : 48.0 kHz Frame rate : 187.500 FPS (256 SPF) Compression mode : Lossy Stream size : 532 MiB (98%) Title : 4k-m.com Language : Chinese Service kind : Complete Main Default : No Forced : No Text #2 ID : 2 Format : UTF-8 Codec ID : S_TEXT/UTF8 Codec ID/Info : UTF-8 Plain Text Duration : 1 h 36 min Bit rate : 21 b/s Count of elements : 649 Stream size : 15.3 KiB (0%) Default : Yes Forced : No

生化危机4:战神再生2010国语音轨文件百度网盘下载

  https://pan.baidu.com/s/1wOdqDgFGq0xETLy5JbKOaw 百度网盘提取码:zyba

音轨文件说明

帮助中心