生化危机2:启示录2004国语音轨

更新日期: 2022年06月14日 下载次数: 1420
电影名称:生化危机2:启示录 (Resident Evil: Apocalypse)

电影年代:2004

电影长度:94分钟

拍摄国家:德国法国英国加拿大美国

音轨语言:汉语普通话

音轨格式:mka

音道数量:5.1

文件大小:477MB

音轨简介

  Format : Matroska Format version : Version 4 / Version 2 File size : 473 MiB Duration : 1 h 37 min Overall bit rate : 677 kb/s Track name : FFans@leon Encoded date : UTC 2022-06-14 11:08:44 Writing application : mkvmerge v65.0.0 (’Too Much’) 64-bit Writing library : libebml v1.4.2 + libmatroska v1.6.4 Cover : Yes Attachments : 方正黑体_GBK.TTF / Cronos Pro Subhead.otf / STKAITI.TTF / 方正细等线简体.ttf / Cover.jpg Audio #1 ID : 1 Format : E-AC-3 Format/Info : Enhanced Audio Coding 3 Codec ID : A_EAC3 Duration : 1 h 37 min Bit rate mode : Constant Bit rate : 640 kb/s Channel(s) : 6 channels Channel positions : Front: L C R, Side: L R, LFE Sampling rate : 48.0 kHz Frame rate : 187.500 FPS (256 SPF) Compression mode : Lossy Stream size : 448 MiB (95%) Title : https://4k-m.com Language : Chinese Service kind : Complete Main Default : No Forced : No Text #2 ID : 2 Format : UTF-8 Codec ID : S_TEXT/UTF8 Codec ID/Info : UTF-8 Plain Text Duration : 1 h 28 min Bit rate : 25 b/s Count of elements : 784 Stream size : 16.9 KiB (0%) Language : Chinese Default : Yes Forced : No

生化危机2:启示录2004国语音轨文件百度网盘下载

  https://pan.baidu.com/s/1kYh87-NBfgO2OlgZm4MPCQ 百度网盘提取码:zyba

音轨文件说明

帮助中心