生化危机2002国语音轨

更新日期: 2022年06月14日 下载次数: 1390
电影名称:生化危机(Resident Evil)

电影年代:2002

电影长度:100分钟

拍摄国家:英国德国法国美国

音轨语言:汉语普通话

音轨格式:mka

音道数量:5.1

文件大小:464MB

音轨简介

  Format : Matroska Format version : Version 4 / Version 2 File size : 464 MiB Duration : 1 h 40 min Overall bit rate : 646 kb/s Track name : FFans@leon Encoded date : UTC 2022-06-14 08:59:01 Writing application : mkvmerge v65.0.0 (’Too Much’) 64-bit Writing library : libebml v1.4.2 + libmatroska v1.6.4 Cover : Yes Attachments : tahoma.ttf / FZCQJW.TTF / Cover.jpg Audio #1 ID : 1 Format : E-AC-3 Format/Info : Enhanced Audio Coding 3 Codec ID : A_EAC3 Duration : 1 h 40 min Bit rate mode : Constant Bit rate : 640 kb/s Channel(s) : 6 channels Channel positions : Front: L C R, Side: L R, LFE Sampling rate : 48.0 kHz Frame rate : 187.500 FPS (256 SPF) Compression mode : Lossy Stream size : 460 MiB (99%) Title : https://4k-m.com Language : Chinese Service kind : Complete Main Default : No Forced : No Text #2 ID : 2 Format : UTF-8 Codec ID : S_TEXT/UTF8 Codec ID/Info : UTF-8 Plain Text Duration : 1 h 33 min Bit rate : 23 b/s Count of elements : 751 Stream size : 15.8 KiB (0%) Language : Chinese Default : Yes Forced : No

生化危机2002国语音轨文件百度网盘下载

  https://pan.baidu.com/s/1Z8_F68pM-YXu0m9Yk5j_mw 百度网盘提取码:zyba

音轨文件说明

帮助中心