史酷比狗2020国语音轨

更新日期: 2022年06月01日 下载次数: 1524
电影名称:史酷比狗(Scooby-Doo)

电影年代:2020

电影长度:94分钟

拍摄国家:美国

音轨语言:汉语普通话

音轨格式:mka

音道数量:5.1

文件大小:552MB

音轨简介

  Format : Matroska Format version : Version 4 / Version 2 File size : 552 MiB Duration : 1 h 33 min Overall bit rate : 822 kb/s Encoded date : UTC 2020-12-01 11:07:20 Writing application : mkvmerge v49.0.0 (’Sick Of Losing Soulmates’) 64-bit Writing library : libebml v1.4.0 + libmatroska v1.6.1 Attachments : MSYH.TTF / MSYHBD.TTF / tahoma.ttf Audio #1 ID : 1 Format : AC-3 Format/Info : Audio Coding 3 Codec ID : A_AC3 Duration : 1 h 33 min Bit rate mode : Constant Bit rate : 384 kb/s Channel(s) : 6 channels Channel positions : Front: L C R, Side: L R, LFE Sampling rate : 48.0 kHz Frame rate : 31.250 FPS (1536 SPF) Bit depth : 16 bits Compression mode : Lossy Stream size : 258 MiB (47%) Title : 台配国语 Language : Chinese Service kind : Complete Main Default : Yes Forced : No Audio #2 ID : 2 Format : AC-3 Format/Info : Audio Coding 3 Codec ID : A_AC3 Duration : 1 h 33 min Bit rate mode : Constant Bit rate : 384 kb/s Channel(s) : 6 channels Channel positions : Front: L C R, Side: L R, LFE Sampling rate : 48.0 kHz Frame rate : 31.250 FPS (1536 SPF) Bit depth : 16 bits Compression mode : Lossy Stream size : 258 MiB (47%) Title : 粤语 Language : Chinese Service kind : Complete Main Default : No Forced : No Text #3 ID : 3 Format : UTF-8 Codec ID : S_TEXT/UTF8 Codec ID/Info : UTF-8 Plain Text Duration : 1 h 26 min Bit rate : 60 b/s Count of elements : 1508 Stream size : 38.4 KiB (0%) Language : Chinese Default : Yes Forced : No

史酷比狗2020国语音轨文件百度网盘下载

  https://pan.baidu.com/s/1FYRYTdxYU-PjIDce9Zl_Vw 百度网盘提取码:zyba

音轨文件说明

帮助中心