饥饿游戏2:星火燎原2013国语音轨

更新日期: 2022年05月05日 下载次数: 334
电影名称:饥饿游戏2:星火燎原(The Hunger Games: Catching Fire)

电影年代:2013

电影长度:146分钟

拍摄国家:美国

音轨语言:汉语普通话

音轨格式:mka

音道数量:2.0

文件大小:236MB

音轨简介

  Format : Matroska Format version : Version 4 / Version 2 File size : 236 MiB Duration : 2 h 26 min Overall bit rate : 225 kb/s Encoded date : UTC 2020-11-24 11:14:35 Writing application : mkvmerge v46.0.0 (’No Deeper Escape’) 64-bit Writing library : libebml v1.3.10 + libmatroska v1.5.2 Audio #1 ID : 1 Format : AC-3 Format/Info : Audio Coding 3 Codec ID : A_AC3 Duration : 2 h 26 min Bit rate mode : Constant Bit rate : 224 kb/s Channel(s) : 3 channels Channel positions : Front: L R, LFE Sampling rate : 48.0 kHz Frame rate : 31.250 FPS (1536 SPF) Bit depth : 16 bits Compression mode : Lossy Stream size : 235 MiB (99%) Title : 国语发音 Language : Chinese Service kind : Complete Main Default : No Forced : No Text #2 ID : 2 Format : SSA Codec ID : S_TEXT/SSA Codec ID/Info : Sub Station Alpha Duration : 2 h 21 min Bit rate : 82 b/s Count of elements : 1648 Compression mode : Lossless Stream size : 85.6 KiB (0%) Title : 中文简体 Language : Chinese Default : No Forced : No Text #3 ID : 3 Format : SSA Codec ID : S_TEXT/SSA Codec ID/Info : Sub Station Alpha Duration : 2 h 21 min Bit rate : 90 b/s Count of elements : 1644 Compression mode : Lossless Stream size : 93.5 KiB (0%) Title : 英文字幕 Default : No Forced : No Text #4 ID : 4 Format : UTF-8 Codec ID : S_TEXT/UTF8 Codec ID/Info : UTF-8 Plain Text Duration : 2 h 21 min Bit rate : 78 b/s Count of elements : 3290 Stream size : 81.5 KiB (0%) Title : 无特效中英 Default : No Forced : No

饥饿游戏2:星火燎原2013国语音轨文件百度网盘下载

  https://pan.baidu.com/s/1mZm1qdkVtHp0MJpQXxWwKw 百度网盘提取码:zyba

音轨文件说明

帮助中心