饥饿游戏2012国语音轨

更新日期: 2022年05月05日 下载次数: 345
电影名称:饥饿游戏(The Hunger Games)

电影年代:2012

电影长度:142分钟

拍摄国家:美国

音轨语言:汉语普通话

音轨格式:mka

音道数量:5.1

文件大小:686MB

音轨简介

  Format : Matroska Format version : Version 4 / Version 2 File size : 686 MiB Duration : 2 h 22 min Overall bit rate : 673 kb/s Encoded date : UTC 2020-11-23 12:14:43 Writing application : mkvmerge v46.0.0 (’No Deeper Escape’) 64-bit Writing library : libebml v1.3.10 + libmatroska v1.5.2 Audio #1 ID : 1 Format : AC-3 Format/Info : Audio Coding 3 Codec ID : A_AC3 Duration : 2 h 22 min Bit rate mode : Constant Bit rate : 640 kb/s Channel(s) : 6 channels Channel positions : Front: L C R, Side: L R, LFE Sampling rate : 48.0 kHz Frame rate : 31.250 FPS (1536 SPF) Bit depth : 16 bits Compression mode : Lossy Stream size : 653 MiB (95%) Title : 中影公映国语.AC3.DD5.1.640Kbps Language : Chinese Service kind : Complete Main Default : No Forced : No Text #2 ID : 2 Format : PGS Muxing mode : zlib Codec ID : S_HDMV/PGS Codec ID/Info : Picture based subtitle format used on BDs/HD-DVDs Duration : 2 h 14 min Bit rate : 32.1 kb/s Count of elements : 2500 Stream size : 30.9 MiB (4%) Title : CHS&ENG特效 Language : Chinese Default : No Forced : No Text #3 ID : 3 Format : PGS Muxing mode : zlib Codec ID : S_HDMV/PGS Codec ID/Info : Picture based subtitle format used on BDs/HD-DVDs Duration : 2 h 15 min Bit rate : 29.6 kb/s Count of elements : 2047 Stream size : 28.6 MiB (4%) Title : CHS&ENG Language : Chinese Default : No Forced : No

饥饿游戏2012国语音轨文件百度网盘下载

  https://pan.baidu.com/s/1jX4hacA9aDuV0kCqgQkW8g 百度网盘提取码:zyba

音轨文件说明

帮助中心