阿拉伯的劳伦斯1962国语音轨

更新日期: 2022年04月24日 下载次数: 483
电影名称:阿拉伯的劳伦斯(Lawrence of Arabia)

电影年代:1962

电影长度:216分钟

拍摄国家:英国美国

音轨语言:汉语普通话

音轨格式:mka

音道数量:5.1

文件大小:319MB

音轨简介

  Format : Matroska Format version : Version 4 / Version 2 File size : 319 MiB Duration : 3 h 46 min Overall bit rate : 196 kb/s Encoded date : UTC 2020-11-24 10:39:58 Writing application : mkvmerge v46.0.0 (’No Deeper Escape’) 64-bit Writing library : libebml v1.3.10 + libmatroska v1.5.2 Attachments : 华文楷体.ttf / Cronos_Pro_Subhead.otf Audio #1 ID : 1 Format : AC-3 Format/Info : Audio Coding 3 Codec ID : A_AC3 Duration : 3 h 46 min Bit rate mode : Constant Bit rate : 192 kb/s Channel(s) : 2 channels Channel positions : Front: L R Sampling rate : 48.0 kHz Frame rate : 31.250 FPS (1536 SPF) Bit depth : 16 bits Compression mode : Lossy Stream size : 305 MiB (96%) Title : 国语 Language : Chinese Service kind : Complete Main Default : No Forced : No Text #2 ID : 2 Format : ASS Codec ID : S_TEXT/ASS Codec ID/Info : Advanced Sub Station Alpha Duration : 3 h 38 min Bit rate : 74 b/s Count of elements : 1853 Compression mode : Lossless Stream size : 120 KiB (0%) Title : 简体 Language : Chinese Default : No Forced : No

阿拉伯的劳伦斯1962国语音轨文件百度网盘下载

  https://pan.baidu.com/s/1tAf7v8PfU83bETnybXZH6Q 百度网盘提取码:zyba

音轨文件说明

帮助中心