借刀杀人2004国语音轨

更新日期: 2022年04月21日 下载次数: 544
电影名称:借刀杀人(Collateral)

电影年代:2004

电影长度:120分钟

拍摄国家:美国

音轨语言:汉语普通话

音轨格式:mka

音道数量:5.1

文件大小:385MB

音轨简介

  Format : Matroska Format version : Version 4 / Version 2 File size : 385 MiB Duration : 1 h 59 min Overall bit rate : 449 kb/s Track name : Collateral.2004.2160p.UHD.BluRay.x265.10bit.HDR.DTS-HD.MA.5.1-SWTYBLZ Encoded date : UTC 2020-12-09 11:03:18 Writing application : mkvmerge v49.0.0 (’Sick Of Losing Soulmates’) 64-bit Writing library : libebml v1.4.0 + libmatroska v1.6.1 Cover : Yes Attachments : small_cover.jpg / small_cover_land.jpg / cover.jpg / cover_land.jpg Audio #1 ID : 1 Format : AC-3 Format/Info : Audio Coding 3 Codec ID : A_AC3 Duration : 1 h 59 min Bit rate mode : Constant Bit rate : 448 kb/s Channel(s) : 6 channels Channel positions : Front: L C R, Side: L R, LFE Sampling rate : 48.0 kHz Frame rate : 31.250 FPS (1536 SPF) Bit depth : 16 bits Compression mode : Lossy Stream size : 384 MiB (100%) Title : 448kbps国语 Language : Chinese Service kind : Complete Main Default : Yes Forced : Yes Text #2 ID : 2 Format : SSA Codec ID : S_TEXT/SSA Codec ID/Info : Sub Station Alpha Duration : 1 h 49 min Bit rate : 238 b/s Count of elements : 1158 Compression mode : Lossless Stream size : 192 KiB (0%) Title : 上中下英 Language : Chinese Default : Yes Forced : No

借刀杀人2004国语音轨文件百度网盘下载

  https://pan.baidu.com/s/1WXvkRV-Tyt_Dj2HYL8tqWg 百度网盘提取码:zyba

音轨文件说明

帮助中心