雨人1988国语音轨

更新日期: 2022年04月05日 下载次数: 757
电影名称:雨人(Rain Man)

电影年代:1988

电影长度:133分钟

拍摄国家:美国

音轨语言:汉语普通话

音轨格式:mka

音道数量:5.1

文件大小:369MB

音轨简介

  Format : Matroska Format version : Version 4 / Version 2 File size : 369 MiB Duration : 2 h 13 min Overall bit rate : 385 kb/s Track name : Rain.Man.1988.2160p.AMZN.WEB-DL.x265.8bit.SDR.DTS-HD.MA.5.1-SWTYBLZ Encoded date : UTC 2021-01-25 03:02:09 Writing application : mkvmerge v49.0.0 (’Sick Of Losing Soulmates’) 64-bit Writing library : libebml v1.4.0 + libmatroska v1.6.1 Cover : Yes Attachments : small_cover.jpg / small_cover_land.jpg / cover.jpg / cover_land.jpg Audio #1 ID : 1 Format : AC-3 Format/Info : Audio Coding 3 Codec ID : A_AC3 Duration : 2 h 13 min Bit rate mode : Constant Bit rate : 384 kb/s Channel(s) : 6 channels Channel positions : Front: L C R, Side: L R, LFE Sampling rate : 48.0 kHz Frame rate : 31.250 FPS (1536 SPF) Bit depth : 16 bits Compression mode : Lossy Stream size : 368 MiB (100%) Title : DD5.1 384K Language : Chinese Service kind : Complete Main Default : No Forced : No Text #2 ID : 2 Format : ASS Codec ID : S_TEXT/ASS Codec ID/Info : Advanced Sub Station Alpha Duration : 2 h 8 min Bit rate : 280 b/s Count of elements : 1996 Compression mode : Lossless Stream size : 263 KiB (0%) Title : 中文字幕 Language : Chinese Default : Yes Forced : Yes

雨人1988国语音轨文件百度网盘下载

  https://pan.baidu.com/s/17y6Unn5oGel_Ldo3HDc8bA 百度网盘提取码:zyba

音轨文件说明

帮助中心